<?xml version="1.0" standalone="no"?>
<!DOCTYPE svg PUBLIC "-//W3C//DTD SVG 1.1//EN" "http://www.w3.org/Graphics/SVG/1.1/DTD/svg11.dtd" >
<svg xmlns="http://www.w3.org/2000/svg">
<metadata>Generated by IcoMoon</metadata>
<defs>
<font id="shiporacle" horiz-adv-x="1024">
<font-face units-per-em="1024" ascent="960" descent="-64" />
<missing-glyph horiz-adv-x="1024" />
<glyph unicode="&#x20;" horiz-adv-x="512" d="" />
<glyph unicode="&#xe900;" glyph-name="instagram" d="M512 960c-138.944 0-156.416-0.64-211.008-3.072-54.592-2.56-91.776-11.136-124.352-23.808-35.494-13.573-65.749-33.667-90.651-59.034l-0.037-0.038c-25.388-24.95-45.479-55.201-58.49-88.97l-0.582-1.718c-12.672-32.512-21.312-69.76-23.808-124.16-2.432-54.72-3.072-72.128-3.072-211.264 0-139.008 0.64-156.416 3.072-211.008 2.56-54.528 11.136-91.712 23.808-124.288 13.12-33.664 30.592-62.208 59.072-90.688 28.416-28.48 56.96-46.016 90.624-59.072 32.64-12.672 69.76-21.312 124.288-23.808 54.656-2.432 72.064-3.072 211.136-3.072s156.416 0.64 211.072 3.072c54.464 2.56 91.776 11.136 124.352 23.808 35.47 13.579 65.703 33.672 90.585 59.033l0.039 0.039c28.48 28.48 45.952 57.024 59.072 90.688 12.608 32.576 21.248 69.76 23.808 124.288 2.432 54.592 3.072 72 3.072 211.072s-0.64 156.48-3.072 211.136c-2.56 54.464-11.2 91.712-23.808 124.224-13.591 35.487-33.682 65.739-59.036 90.652l-0.036 0.036c-24.933 25.415-55.19 45.511-88.975 58.493l-1.713 0.579c-32.64 12.672-69.888 21.312-124.352 23.808-54.656 2.432-72 3.072-211.136 3.072h0.192zM466.112 867.712h45.952c136.704 0 152.896-0.448 206.848-2.944 49.92-2.24 77.056-10.624 95.104-17.6 23.872-9.28 40.96-20.416 58.88-38.336s28.992-34.944 38.272-58.88c7.040-17.984 15.36-45.12 17.6-95.040 2.496-53.952 3.008-70.144 3.008-206.784s-0.512-152.896-3.008-206.848c-2.24-49.92-10.624-76.992-17.6-95.040-8.664-23.073-21.728-42.722-38.295-58.776l-0.041-0.040c-17.92-17.92-34.944-28.992-58.88-38.272-17.92-7.040-45.056-15.36-95.040-17.664-53.952-2.432-70.144-3.008-206.848-3.008s-152.96 0.576-206.912 3.008c-49.92 2.304-76.992 10.624-95.040 17.664-23.088 8.654-42.756 21.695-58.845 38.236l-0.035 0.036c-16.622 16.119-29.705 35.786-38.037 57.788l-0.363 1.092c-6.976 17.984-15.36 45.12-17.6 95.040-2.432 53.952-2.944 70.144-2.944 206.912 0 136.704 0.512 152.832 2.944 206.784 2.304 49.92 10.624 77.056 17.664 95.104 9.28 23.872 20.416 40.96 38.336 58.88s34.944 28.992 58.88 38.272c18.048 7.040 45.12 15.36 95.040 17.664 47.232 2.176 65.536 2.816 160.96 2.88v-0.128zM785.344 782.72c-33.932 0-61.44-27.508-61.44-61.44s27.508-61.44 61.44-61.44v0c33.932 0 61.44 27.508 61.44 61.44s-27.508 61.44-61.44 61.44v0zM512.064 710.912c-1.22 0.020-2.66 0.032-4.102 0.032-145.238 0-262.976-117.738-262.976-262.976s117.738-262.976 262.976-262.976c1.443 0 2.882 0.012 4.319 0.035l-0.217-0.003c143.462 2.309 258.874 119.149 258.874 262.944s-115.411 260.634-258.657 262.941l-0.217 0.003zM512.064 618.688c94.268 0 170.688-76.42 170.688-170.688s-76.42-170.688-170.688-170.688v0c-94.268 0-170.688 76.42-170.688 170.688s76.42 170.688 170.688 170.688v0z" />
<glyph unicode="&#xe901;" glyph-name="facebook" d="M1024 444.864c0 284.544-229.248 515.2-512 515.2-282.88-0.064-512.128-230.656-512.128-515.264 0-257.088 187.264-470.208 432-508.864v360h-129.92v148.864h130.048v113.6c0 129.088 76.48 200.384 193.408 200.384 56.064 0 114.624-10.048 114.624-10.048v-126.72h-64.576c-63.552 0-83.392-39.744-83.392-80.512v-96.64h141.952l-22.656-148.864h-119.36v-360c244.736 38.656 432 251.776 432 508.864z" />
<glyph unicode="&#xe902;" glyph-name="search" d="M751.488 297.984c50.265 67.948 80.455 153.397 80.455 245.897 0 229.75-186.25 416-416 416s-416-186.25-416-416c0-229.75 186.25-416 416-416 92.605 0 178.143 30.259 247.265 81.429l-1.128-0.798h-0.064c1.92-2.56 3.968-4.992 6.272-7.36l246.4-246.4c11.586-11.594 27.595-18.765 45.28-18.765 35.353 0 64.013 28.66 64.013 64.013 0 17.669-7.158 33.665-18.733 45.248l-246.4 246.4c-2.242 2.269-4.645 4.367-7.194 6.28l-0.166 0.12zM768 544c0-194.404-157.596-352-352-352s-352 157.596-352 352v0c0 194.404 157.596 352 352 352s352-157.596 352-352v0z" />
<glyph unicode="&#xe903;" glyph-name="plus" d="M512 960c35.346 0 64-28.654 64-64v0-384h384c35.346 0 64-28.654 64-64s-28.654-64-64-64v0h-384v-384c0-35.346-28.654-64-64-64s-64 28.654-64 64v0 384h-384c-35.346 0-64 28.654-64 64s28.654 64 64 64v0h384v384c0 35.346 28.654 64 64 64v0z" />
<glyph unicode="&#xe904;" glyph-name="exclamation-circle-fill" d="M1024 448c0-282.77-229.23-512-512-512s-512 229.23-512 512v0c0 282.77 229.23 512 512 512s512-229.23 512-512v0zM512 704c-31.974-0.019-57.887-25.943-57.887-57.92 0-2.029 0.104-4.033 0.308-6.007l-0.021 0.247 22.4-224.448c1.598-18.175 16.747-32.323 35.2-32.323s33.602 14.149 35.19 32.189l0.010 0.134 22.4 224.448c0.183 1.727 0.287 3.731 0.287 5.76 0 31.977-25.913 57.901-57.885 57.92h-0.002zM512.128 320c-35.346 0-64-28.654-64-64s28.654-64 64-64v0c35.346 0 64 28.654 64 64s-28.654 64-64 64v0z" />
<glyph unicode="&#xe905;" glyph-name="telephone-fill" d="M120.64 927.296c20.204 20.175 48.1 32.651 78.91 32.651 35.708 0 67.502-16.758 87.946-42.839l0.184-0.243 114.88-147.584c21.056-27.072 28.48-62.336 20.16-95.616l-35.008-140.16c-0.819-3.152-1.289-6.77-1.289-10.498 0-11.968 4.845-22.805 12.682-30.655l157.247-157.247c7.851-7.843 18.693-12.694 30.667-12.694 3.746 0 7.382 0.475 10.85 1.367l-0.301-0.066 140.096 35.008c8.133 2.119 17.469 3.335 27.090 3.335 25.94 0 49.814-8.843 68.771-23.68l-0.245 0.185 147.584-114.816c53.056-41.28 57.92-119.68 10.432-167.104l-66.176-66.176c-47.36-47.36-118.144-68.16-184.128-44.928-175.605 62.862-325.547 159.45-448.613 282.853l-0.027 0.027c-123.422 123.075-220.008 272.994-280.265 440.262l-2.615 8.314c-23.168 65.92-2.368 136.768 44.992 184.128l66.176 66.176z" />
<glyph unicode="&#xe906;" glyph-name="person-circle" d="M704 576c0-106.039-85.961-192-192-192s-192 85.961-192 192v0c0 106.039 85.961 192 192 192s192-85.961 192-192v0zM0 448c0 282.77 229.23 512 512 512s512-229.23 512-512v0c0-282.77-229.23-512-512-512s-512 229.23-512 512v0zM512 896c-247.414-0.014-447.976-200.585-447.976-448 0-106.199 36.952-203.768 98.7-280.549l-0.676 0.869c45.44 73.216 145.472 151.68 349.952 151.68s304.448-78.4 349.952-151.68c61.072 75.912 98.024 173.481 98.024 279.68 0 247.415-200.563 447.986-447.974 448h-0.002z" />
<glyph unicode="&#xe907;" glyph-name="geo-alt-fill" d="M512-64s384 363.904 384 640c0 212.077-171.923 384-384 384s-384-171.923-384-384v0c0-276.096 384-640 384-640zM512 384c-106.039 0-192 85.961-192 192s85.961 192 192 192v0c106.039 0 192-85.961 192-192s-85.961-192-192-192v0z" />
<glyph unicode="&#xe908;" glyph-name="fill-upload-blank" d="M204.8 960.001c-56.554 0-102.4-45.846-102.4-102.4v0-819.201c0-56.554 45.846-102.4 102.4-102.4v0h614.4c56.554 0 102.4 45.846 102.4 102.4v0 614.4l-307.2 307.2h-409.6zM614.4 601.6h-51.2v256l256-256h-204.8z" />
<glyph unicode="&#xe909;" glyph-name="fill-upload" d="M204.8-64.001h614.4c56.554 0 102.4 45.846 102.4 102.4v0 614.4l-307.2 307.2h-409.6c-56.554 0-102.4-45.846-102.4-102.4v0-819.201c0-56.554 45.846-102.4 102.4-102.4v0zM563.2 857.6l256-256h-256v256zM332.8 499.2c42.419-0.014 76.8-34.405 76.8-76.825 0-42.43-34.396-76.825-76.825-76.825-0.010 0-0.018 0-0.028 0h0.001c-42.419 0.014-76.8 34.405-76.8 76.825 0 42.43 34.396 76.825 76.825 76.825 0.010 0 0.018 0 0.028 0h-0.001zM358.4 243.2l81.767-69.786 123.034 223.386 204.8-307.2h-512.001l102.4 153.6z" />
<glyph unicode="&#xe90a;" glyph-name="x" d="M886.656 822.656c5.808-5.794 9.401-13.805 9.401-22.656s-3.593-16.862-9.401-22.655l-704.001-704.001c-5.798-5.798-13.808-9.384-22.656-9.384-17.695 0-32.040 14.345-32.040 32.040 0 8.848 3.586 16.858 9.384 22.656v0l704 704c5.794 5.808 13.805 9.401 22.656 9.401s16.862-3.593 22.655-9.401l0.001-0.001zM137.344 822.656c-5.808-5.794-9.401-13.805-9.401-22.656s3.593-16.862 9.401-22.655l704.001-704.001c5.798-5.798 13.808-9.384 22.656-9.384 17.695 0 32.040 14.345 32.040 32.040 0 8.848-3.586 16.858-9.384 22.656v0l-704 704c-5.794 5.808-13.805 9.401-22.656 9.401s-16.862-3.593-22.655-9.401l-0.001-0.001z" />
<glyph unicode="&#xe90b;" glyph-name="check" d="M815.104 705.92c8.521 8.69 20.384 14.076 33.504 14.076s24.983-5.386 33.497-14.068l0.007-0.008c18.304-18.496 18.56-48.384 0.64-67.2l-378.432-447.36c-8.612-9.432-20.96-15.326-34.685-15.326-13.106 0-24.956 5.374-33.468 14.039l-0.007 0.007-230.272 233.344c-8.567 8.732-13.855 20.709-13.855 33.92s5.288 25.188 13.863 33.928l-0.007-0.008c8.521 8.69 20.384 14.076 33.504 14.076s24.983-5.386 33.497-14.068l0.007-0.008 195.328-197.952 345.6 411.2c0.414 0.512 0.833 0.972 1.277 1.405l0.003 0.003z" />
<glyph unicode="&#xe90c;" glyph-name="chevron-up" d="M489.344 662.656c5.794 5.808 13.805 9.401 22.656 9.401s16.862-3.593 22.655-9.401l384.001-384.001c5.798-5.798 9.384-13.808 9.384-22.656 0-17.695-14.345-32.040-32.040-32.040-8.848 0-16.858 3.586-22.656 9.384v0l-361.344 361.408-361.344-361.408c-5.798-5.798-13.808-9.384-22.656-9.384-17.695 0-32.040 14.345-32.040 32.040 0 8.848 3.586 16.858 9.384 22.656l384 384z" />
<glyph unicode="&#xe90d;" glyph-name="chevron-right" d="M297.344 854.656c5.794 5.808 13.805 9.401 22.656 9.401s16.862-3.593 22.655-9.401l384.001-384.001c5.808-5.794 9.401-13.805 9.401-22.656s-3.593-16.862-9.401-22.655l-384.001-384.001c-5.798-5.798-13.808-9.384-22.656-9.384-17.695 0-32.040 14.345-32.040 32.040 0 8.848 3.586 16.858 9.384 22.656v0l361.408 361.344-361.408 361.344c-5.808 5.794-9.401 13.805-9.401 22.656s3.593 16.862 9.401 22.655l0.001 0.001z" />
<glyph unicode="&#xe90e;" glyph-name="chevron-left" d="M726.656 854.656c5.808-5.794 9.401-13.805 9.401-22.656s-3.593-16.862-9.401-22.655l-361.409-361.345 361.408-361.344c5.798-5.798 9.384-13.808 9.384-22.656 0-17.695-14.345-32.040-32.040-32.040-8.848 0-16.858 3.586-22.656 9.384v0l-384 384c-5.808 5.794-9.401 13.805-9.401 22.656s3.593 16.862 9.401 22.655l384.001 384.001c5.794 5.808 13.805 9.401 22.656 9.401s16.862-3.593 22.655-9.401l0.001-0.001z" />
<glyph unicode="&#xe90f;" glyph-name="chevron-down" d="M105.344 662.656c5.794 5.808 13.805 9.401 22.656 9.401s16.862-3.593 22.655-9.401l361.345-361.409 361.344 361.408c5.798 5.798 13.808 9.384 22.656 9.384 17.695 0 32.040-14.345 32.040-32.040 0-8.848-3.586-16.858-9.384-22.656v0l-384-384c-5.794-5.808-13.805-9.401-22.656-9.401s-16.862 3.593-22.655 9.401l-384.001 384.001c-5.808 5.794-9.401 13.805-9.401 22.656s3.593 16.862 9.401 22.655l0.001 0.001z" />
<glyph unicode="&#xe910;" glyph-name="bell-fill" d="M512-64c70.692 0 128 57.308 128 128v0h-256c0-70.692 57.308-128 128-128v0zM575.68 889.664c0.204 1.917 0.32 4.141 0.32 6.392 0 35.346-28.654 64-64 64s-64-28.654-64-64c0-2.251 0.116-4.475 0.343-6.666l-0.023 0.274c-147.26-30.739-256.3-159.465-256.32-313.661v-0.003c0-70.272-32-384-128-448h896c-96 64-128 377.728-128 448 0 154.88-110.080 284.16-256.32 313.664z" />
<glyph unicode="&#xe911;" glyph-name="pencil-square" d="M992.128 835.84c5.77-5.787 9.337-13.773 9.337-22.592s-3.567-16.805-9.338-22.593l-66.751-66.815-128 128 66.752 66.816c5.791 5.789 13.789 9.369 22.624 9.369s16.833-3.58 22.624-9.369l82.752-82.752zM880.128 678.656l-128 128-436.032-436.096c-3.428-3.427-6.082-7.628-7.677-12.319l-0.067-0.225-51.52-154.496c-0.516-1.504-0.814-3.236-0.814-5.038 0-8.837 7.163-16 16-16 1.802 0 3.534 0.298 5.151 0.847l-0.113-0.033 154.496 51.52c4.912 1.643 9.113 4.276 12.546 7.682l436.030 436.094zM64 96c0-53.019 42.981-96 96-96v0h704c53.019 0 96 42.981 96 96v0 384c0 17.673-14.327 32-32 32s-32-14.327-32-32v0-384c0-17.673-14.327-32-32-32v0h-704c-17.673 0-32 14.327-32 32v0 704c0 17.673 14.327 32 32 32v0h416c17.673 0 32 14.327 32 32s-14.327 32-32 32v0h-416c-53.019 0-96-42.981-96-96v0-704z" />
<glyph unicode="&#xe912;" glyph-name="camera" d="M672 416c0-88.366-71.634-160-160-160s-160 71.634-160 160v0c0 88.366 71.634 160 160 160s160-71.634 160-160v0zM128 704c-70.692 0-128-57.308-128-128v0-384c0-70.692 57.308-128 128-128v0h768c70.692 0 128 57.308 128 128v0 384c0 70.692-57.308 128-128 128v0h-75.008c-35.343 0.008-67.337 14.339-90.496 37.504l-52.992 52.992c-23.158 23.165-55.153 37.496-90.494 37.504h-150.018c-35.343-0.008-67.337-14.339-90.496-37.504l-52.992-52.992c-23.158-23.165-55.153-37.496-90.494-37.504h-75.010zM160 576c-17.673 0-32 14.327-32 32s14.327 32 32 32v0c17.673 0 32-14.327 32-32s-14.327-32-32-32v0zM736 416c0-123.712-100.288-224-224-224s-224 100.288-224 224v0c0 123.712 100.288 224 224 224s224-100.288 224-224v0z" />
<glyph unicode="&#xe913;" glyph-name="envelope-fill" d="M3.2 732.48c13.436 57.415 64.197 99.52 124.791 99.52 0.003 0 0.006 0 0.009 0h768c0.002 0 0.006 0 0.009 0 60.594 0 111.355-42.105 124.62-98.653l0.171-0.867-508.8-310.976-508.8 310.976zM0 659.392v-454.656l371.392 227.712-371.392 226.944zM432.704 394.88l-420.48-257.728c21.029-43.602 64.89-73.152 115.653-73.152 0.043 0 0.086 0 0.129 0h767.993c0.008 0 0.018 0 0.028 0 50.788 0 94.667 29.579 115.351 72.451l0.333 0.765-420.48 257.728-79.232-48.448-79.296 48.448zM652.608 432.384l371.392-227.648v454.656l-371.392-226.944z" />
<glyph unicode="&#xe914;" glyph-name="chat-dots-fill" d="M1024 448c0-247.424-229.248-448-512-448-0.232 0-0.507-0.001-0.782-0.001-53.137 0-104.605 7.148-153.494 20.534l4.068-0.95c-37.376-18.944-123.2-55.296-267.584-78.976-12.8-2.048-22.528 11.264-17.472 23.168 22.656 53.504 43.136 124.8 49.28 189.824-78.4 78.72-126.016 181.76-126.016 294.4 0 247.424 229.248 448 512 448s512-200.576 512-448zM320 448c0 35.346-28.654 64-64 64s-64-28.654-64-64v0c0-35.346 28.654-64 64-64s64 28.654 64 64v0zM576 448c0 35.346-28.654 64-64 64s-64-28.654-64-64v0c0-35.346 28.654-64 64-64s64 28.654 64 64v0zM768 384c35.346 0 64 28.654 64 64s-28.654 64-64 64v0c-35.346 0-64-28.654-64-64s28.654-64 64-64v0z" />
<glyph unicode="&#xe915;" glyph-name="person-plus" d="M64 64s-64 0-64 64 64 256 384 256 384-192 384-256-64-64-64-64h-640zM384 448c106.039 0 192 85.961 192 192s-85.961 192-192 192v0c-106.039 0-192-85.961-192-192s85.961-192 192-192v0zM864 640c17.673 0 32-14.327 32-32v0-96h96c17.673 0 32-14.327 32-32s-14.327-32-32-32v0h-96v-96c0-17.673-14.327-32-32-32s-32 14.327-32 32v0 96h-96c-17.673 0-32 14.327-32 32s14.327 32 32 32v0h96v96c0 17.673 14.327 32 32 32v0z" />
<glyph unicode="&#xe916;" glyph-name="person-dash" d="M704 480c0 17.673 14.327 32 32 32v0h256c17.673 0 32-14.327 32-32s-14.327-32-32-32v0h-256c-17.673 0-32 14.327-32 32v0zM64 64s-64 0-64 64 64 256 384 256 384-192 384-256-64-64-64-64h-640zM384 448c106.039 0 192 85.961 192 192s-85.961 192-192 192v0c-106.039 0-192-85.961-192-192s85.961-192 192-192v0z" />
<glyph unicode="&#xe917;" glyph-name="person-x" d="M64 64s-64 0-64 64 64 256 384 256 384-192 384-256-64-64-64-64h-640zM384 448c106.039 0 192 85.961 192 192s-85.961 192-192 192v0c-106.039 0-192-85.961-192-192s85.961-192 192-192v0zM777.344 630.656c5.794 5.808 13.805 9.401 22.656 9.401s16.862-3.593 22.655-9.401l73.345-73.409 73.344 73.408c5.798 5.798 13.808 9.384 22.656 9.384 17.695 0 32.040-14.345 32.040-32.040 0-8.848-3.586-16.858-9.384-22.656v0l-73.408-73.344 73.408-73.344c5.798-5.798 9.384-13.808 9.384-22.656 0-17.695-14.345-32.040-32.040-32.040-8.848 0-16.858 3.586-22.656 9.384v0l-73.344 73.408-73.344-73.408c-5.798-5.798-13.808-9.384-22.656-9.384-17.695 0-32.040 14.345-32.040 32.040 0 8.848 3.586 16.858 9.384 22.656v0l73.408 73.344-73.408 73.344c-5.808 5.794-9.401 13.805-9.401 22.656s3.593 16.862 9.401 22.655l0.001 0.001z" />
<glyph unicode="&#xe918;" glyph-name="play-btn" d="M0 192v512c0 70.692 57.308 128 128 128v0h768c70.692 0 128-57.308 128-128v0-512c0-70.692-57.308-128-128-128v0h-768c-70.692 0-128 57.308-128 128v0zM434.56 634.048c-5.156 3.709-11.599 5.932-18.56 5.932-17.666 0-31.989-14.316-32-31.979v-320.001c0.011-17.665 14.334-31.98 32-31.98 6.961 0 13.404 2.223 18.655 5.998l-0.095-0.065 224 160c8.161 5.875 13.412 15.348 13.412 26.048s-5.251 20.173-13.318 25.983l-0.095 0.065-224 160z" />
<glyph unicode="&#xe919;" glyph-name="image" d="M0.128 768c0 70.692 57.308 128 128 128v0h768c70.692 0 128-57.308 128-128v0-640c0-70.692-57.308-128-128-128v0h-768c-70.692 0-128 57.308-128 128v0 640zM64.128 192v-64c0-35.346 28.654-64 64-64v0h768c35.346 0 64 28.654 64 64v0 224l-241.728 124.608c-4.175 2.137-9.107 3.389-14.332 3.389-8.821 0-16.808-3.569-22.597-9.342l-237.439-237.439-170.24 113.408c-4.984 3.36-11.125 5.363-17.734 5.363-8.816 0-16.799-3.565-22.587-9.332l0.001 0.001-169.344-150.656zM384.128 608c0 53.019-42.981 96-96 96s-96-42.981-96-96v0c0-53.019 42.981-96 96-96s96 42.981 96 96v0z" />
<glyph unicode="&#xe91a;" glyph-name="thumbs-up-fill" d="M445.184 848.32c4.16 59.84 60.928 106.112 122.112 90.88l16.704-4.224c29.632-7.424 55.936-29.184 64.768-61.76 14.080-52.224 34.112-160.704 3.968-288.64 6.301 0.983 16.026 2.138 25.818 3.069l2.534 0.195c45.632 4.16 106.816 4.608 161.024-13.44 33.152-11.072 63.616-43.584 76.8-81.472 11.776-34.048 10.24-74.368-14.976-110.912 3.712-7.616 6.592-15.488 8.832-23.232 4.928-17.28 7.232-36.288 7.232-54.784s-2.304-37.504-7.232-54.784c-2.496-8.64-5.76-17.472-10.24-25.856 10.816-24.768 6.848-52.416-0.192-73.472-7.765-22.062-18.349-41.168-31.57-58.114l0.338 0.45c3.456-9.728 4.864-19.968 4.864-29.76 0-19.52-5.696-40-16.192-58.368-21.376-37.504-63.808-68.096-123.776-68.096h-224c-38.72 0-68.48 5.184-93.824 13.952-23.757 8.777-44.234 19.214-63.249 31.697l1.169-0.721-3.072 1.92c-32.256 19.648-63.936 38.976-132.352 46.208-49.024 5.248-92.672 44.8-92.672 98.944v256c0 54.4 43.84 91.648 86.848 103.36 54.336 14.848 100.736 50.368 136.448 90.24 35.84 40.128 58.496 81.92 66.496 104.896 12.736 36.8 22.784 98.496 27.392 165.76z" />
<glyph unicode="&#xe91b;" glyph-name="thumbs-up" d="M567.296 957.056c-61.184 15.296-118.016-30.976-122.112-90.88-4.608-67.264-14.72-129.024-27.392-165.76-8-23.040-30.656-64.832-66.56-104.896-35.648-39.872-82.048-75.392-136.384-90.24-43.008-11.712-86.848-48.96-86.848-103.36v-256.064c0-54.080 43.648-93.696 92.672-98.88 68.48-7.296 100.096-26.56 132.352-46.272l3.072-1.92c17.408-10.56 36.992-22.272 62.080-30.976 25.408-8.704 55.104-13.888 93.824-13.888h224c59.968 0 102.336 30.528 123.776 68.096 9.94 16.725 15.938 36.813 16.255 58.278l0.001 0.090c0 9.728-1.472 19.968-4.928 29.696 12.864 16.832 24.32 36.992 31.232 57.664 7.040 21.12 11.008 48.768 0.256 73.536 4.416 8.32 7.68 17.216 10.176 25.792 4.928 17.28 7.232 36.352 7.232 54.848 0 18.432-2.304 37.44-7.232 54.784-2.541 8.957-5.549 16.647-9.191 23.965l0.359-0.797c13.834 19.472 22.115 43.731 22.115 69.924 0 14.723-2.617 28.835-7.41 41.896l0.271-0.844c-13.184 37.888-43.648 70.4-76.8 81.408-54.208 18.048-115.392 17.664-161.024 13.504-12.282-1.095-22.012-2.228-31.672-3.581l3.32 0.381c9.978 40.943 15.701 87.948 15.701 136.29 0 54.136-7.177 106.596-20.633 156.48l0.963-4.194c-8.979 30.769-33.442 54.233-64.165 61.637l-0.603 0.123-16.704 4.16zM736 17.856h-224c-32.64 0-55.232 4.416-72.96 10.496-17.984 6.208-32.384 14.592-49.664 25.152l-2.56 1.536c-35.52 21.696-76.672 46.784-159.36 55.552-21.312 2.304-35.456 18.56-35.456 35.2v256.128c0 16.256 14.464 34.752 39.68 41.6 70.080 19.2 126.528 63.744 167.296 109.312 40.64 45.44 68.096 94.4 79.232 126.592 15.552 44.8 26.048 113.152 30.848 182.4 1.6 23.168 23.040 38.016 42.688 33.152l16.768-4.224c10.24-2.56 16.512-9.152 18.432-16.32 11.105-40.653 17.485-87.331 17.485-135.499 0-59.683-9.795-117.077-27.866-170.664l1.101 3.763c-1.051-3.033-1.658-6.528-1.658-10.166 0-17.673 14.327-32 32-32 2.748 0 5.415 0.346 7.959 0.998l-0.030 0.016 0.896 0.192 3.712 0.896c18.374 4.145 40.997 7.694 64.018 9.873l2.286 0.175c42.432 3.84 93.248 3.456 135.040-10.496 11.2-3.712 28.8-19.2 36.48-41.6 6.848-19.712 5.568-42.88-17.024-65.408l-22.592-22.592 22.592-22.656c2.752-2.752 6.72-9.024 9.856-20.16 3.072-10.688 4.8-23.68 4.8-37.184 0-13.568-1.728-26.496-4.8-37.248-3.2-11.136-7.104-17.408-9.856-20.16l-22.592-22.592 22.592-22.656c3.008-3.008 6.976-11.328 0.32-31.232-7.345-20.099-18.355-37.286-32.342-51.543l0.022 0.023-22.592-22.592 22.592-22.656c0.384-0.32 2.624-3.2 2.624-10.88-0.307-9.865-3.146-19.006-7.883-26.874l0.139 0.25c-10.56-18.432-32.192-35.84-68.224-35.84z" />
<glyph unicode="&#xe91c;" glyph-name="balance" horiz-adv-x="1113" d="M1112.84 304.713v0l-18.374 0.013-169.265 447.121c0.865 0.261 1.757 0.371 2.585 0.718 3.894 1.682 7.171 4.353 9.521 7.197 2.611 3.165 4.327 6.405 5.636 9.62 0.496 1.076 0.793 2.262 0.793 3.523 0 4.784-3.868 8.669-8.656 8.669-3.611 0-6.688-2.214-7.986-5.366-0.964-1.867-2.029-3.499-3.167-4.612-2.262-2.126-3.611-2.411-6.444-2.076-5.97 0.865-14.368 7.011-21.256 13.615-6.738 6.367-14.232 15.357-22.813 22.813-8.273 7.777-17.829 14.454-27.858 20.415-10.165 5.812-21.306 10.176-32.742 13.070-23.074 5.638-46.755 4.056-67.527-0.347-21.034-4.228-39.889-10.793-57.462-16.705-17.52-6.035-33.656-11.722-48.519-16.259-20.232-6.343-38.009-10.276-52.775-12.576v57.815c11.524 4.28 18.464 11.289 20.665 20.872 7.465 32.532-45.729 83.080-47.992 85.219l-2.769 2.546-2.747-2.585c-2.277-2.139-55.461-52.687-47.992-85.219 2.201-9.583 9.15-16.593 20.665-20.872v-57.82c-14.766 2.3-32.549 6.233-52.79 12.576-14.864 4.551-31.003 10.226-48.512 16.261-17.584 5.91-36.439 12.475-57.475 16.705-20.771 4.39-44.453 5.972-67.525 0.345-11.438-2.893-22.58-7.246-32.756-13.070-10.015-5.959-19.585-12.624-27.845-20.415-8.581-7.456-16.075-16.446-22.802-22.813-6.886-6.604-15.282-12.736-21.256-13.613-2.831-0.334-4.191-0.050-6.442 2.076-1.125 1.113-2.201 2.732-3.165 4.612-1.298 3.139-4.377 5.366-7.988 5.366-4.784 0-8.654-3.87-8.654-8.667 0-1.261 0.297-2.436 0.778-3.523 1.322-3.215 3.055-6.455 5.651-9.62 2.35-2.844 5.614-5.502 9.521-7.197 0.83-0.345 1.72-0.457 2.572-0.718l-169.278-447.082-18.399-0.013c0-27.908 9.361-93.554 197.828-93.554 188.456 0 197.817 65.659 197.817 93.554v0h-18.388l-169.722 448.283c3.116 1.162 5.948 2.622 8.594 4.105 5.33 3.055 10.041 6.528 14.467 10.189 9.236 7.716 15.851 14.9 23.839 20.972 7.702 6.429 16.162 11.462 24.669 15.864 8.618 4.215 17.582 7.048 26.634 8.755 18.177 3.215 36.812 1.026 54.828-3.969 18.016-4.773 35.488-12.018 52.266-18.882 16.821-6.986 33.043-13.874 48.501-19.672 15.444-5.849 30.124-10.584 43.441-14.159 7.727-2.003 14.909-3.598 21.579-4.896v-472.394c-12.332-1.015-22.049-11.388-22.049-23.964 0-11.785 8.295-21.478 19.514-23.593v-50.759c0-120.224-122.284-196.492-173.899-196.492-16.211 0-24.693-12.093-24.693-24.050 0-11.959 8.482-24.050 24.693-24.050h413.026c16.211 0 24.68 12.104 24.68 24.050 0 11.97-8.48 24.050-24.68 24.050-51.624 0-173.888 76.267-173.888 196.492v50.759c11.203 2.102 19.525 11.809 19.525 23.593 0 12.587-9.732 22.949-22.060 23.964v472.396c6.666 1.287 13.848 2.881 21.565 4.896 13.329 3.562 28.020 8.309 43.449 14.159 15.458 5.8 31.695 12.686 48.497 19.672 16.791 6.863 34.265 14.109 52.281 18.882 18.005 4.996 36.636 7.184 54.826 3.969 9.040-1.695 18.029-4.526 26.635-8.755 8.506-4.403 16.975-9.435 24.667-15.864 7.99-6.071 14.616-13.268 23.841-20.972 4.425-3.648 9.137-7.134 14.465-10.189 2.66-1.483 5.478-2.943 8.596-4.105l-169.724-448.283h-18.399c0-27.908 9.372-93.554 197.83-93.554 188.443 0 197.815 65.659 197.815 93.554h-0.020zM35.551 304.726l162.28 428.622 162.28-428.635-324.559 0.013zM752.783 304.713l162.267 428.635 162.256-428.622-324.523-0.013z" />
<glyph unicode="&#xe91d;" glyph-name="lightning-charge-fill" d="M720.064 955.648c9.605-5.642 15.951-15.922 15.951-27.684 0-3.368-0.52-6.614-1.485-9.662l0.062 0.227-115.264-374.528h212.672c0.004 0 0.008 0 0.013 0 17.673 0 32-14.327 32-32 0-8.506-3.318-16.236-8.731-21.967l0.014 0.015-512-544c-5.851-6.211-14.129-10.078-23.311-10.078-17.673 0-32 14.327-32 32 0 3.368 0.52 6.615 1.485 9.665l-0.062-0.227 115.264 374.592h-212.672c-0.004 0-0.008 0-0.013 0-17.673 0-32 14.327-32 32 0 8.506 3.318 16.236 8.731 21.967l-0.014-0.015 512 544c5.851 6.21 14.129 10.076 23.31 10.076 5.911 0 11.448-1.603 16.2-4.398l-0.15 0.082z" />
<glyph unicode="&#xe91e;" glyph-name="globe" d="M0 448c0 282.77 229.23 512 512 512s512-229.23 512-512v0c0-282.77-229.23-512-512-512s-512 229.23-512 512v0zM480 891.072c-42.88-13.056-85.44-52.48-120.768-118.72-10.28-18.898-20.382-41.453-28.829-64.8l-1.123-3.552h150.72v187.072zM261.76 704c12.079 38.128 25.963 70.724 42.515 101.68l-1.555-3.184c12.166 22.826 24.833 42.362 38.954 60.722l-0.746-1.010c-80.861-34.102-147.541-88.437-195.657-156.783l-0.951-1.425h117.44zM224.512 480c1.92 56.128 8.832 109.952 19.968 160h-137.344c-22.719-46.693-37.758-101.118-41.901-158.561l-0.083-1.439h159.36zM310.208 640c-11.881-47.349-19.656-102.259-21.595-158.65l-0.037-1.35h191.424v160h-169.792zM544 640v-160h191.36c-1.95 57.727-9.703 112.641-22.71 165.488l1.142-5.488h-169.792zM288.64 416c1.952-57.728 9.705-112.642 22.71-165.489l-1.142 5.489h169.792v160h-191.36zM544 416v-160h169.792c11.968 48.96 19.584 102.912 21.632 160h-191.424zM329.28 192c8.832-24.704 18.88-47.616 29.952-68.352 35.328-66.24 77.952-105.6 120.768-118.72v187.072h-150.72zM340.928 33.792c-13.376 17.35-26.044 36.886-37.085 57.426l-1.123 2.286c-14.996 27.772-28.881 60.369-39.793 94.298l-1.167 4.198h-117.44c49.065-69.774 115.746-124.109 193.66-157.099l2.948-1.109zM244.48 256c-10.908 47.291-18.085 102.265-19.931 158.588l-0.037 1.412h-159.36c3.968-56.96 18.624-110.912 41.984-160h137.344zM683.072 33.792c80.862 34.099 147.543 88.434 195.656 156.782l0.952 1.426h-117.44c-12.080-38.129-25.965-70.725-42.515-101.682l1.555 3.186c-12.161-22.825-24.829-42.361-38.953-60.719l0.745 1.007zM544 192v-187.072c42.88 13.056 85.44 52.48 120.768 118.72 11.072 20.736 21.12 43.648 29.952 68.352h-150.72zM779.52 256h137.344c23.36 49.088 38.016 103.040 41.984 160h-159.36c-1.882-57.733-9.059-112.707-21.080-165.845l1.112 5.845zM958.848 480c-4.228 58.882-19.266 113.306-43.143 162.656l1.159-2.656h-137.344c11.136-50.048 18.048-103.872 19.968-160h159.36zM721.28 802.496c15.808-29.696 29.568-62.72 40.96-98.496h117.44c-49.065 69.774-115.746 124.109-193.66 157.099l-2.948 1.109c13.952-18.176 26.752-38.272 38.208-59.712zM694.72 704c-9.568 26.898-19.671 49.453-31.288 71.072l1.336-2.72c-35.328 66.24-77.888 105.6-120.768 118.72v-187.072h150.72z" />
</font>
</defs>
</svg>
